IPW UK CZW 2018 05 13 Extreme Measures 720p WEB NCMP Watch / Download

IPW UK CZW 2018 05 13 Extreme Measures 720p WEB NCMP Watch / Download

 

 

 

 


 

dx-tv.com

 

 

 

 

Complete name : IPW.UK.CZW.2018.05.13.Extreme.Measures.720p.WEB.h264-NCMP.mp4
Format : MPEG-4
Format profile : Base Media
Codec ID : isom
File size : 2.76 GiB
Duration : 2h 26mn
Overall bit rate : 2 690 Kbps

Video
ID : 2
Format : AVC
Format/Info : Advanced Video Codec
Codec ID : avc1
Codec ID/Info : Advanced Video Coding
Duration : 2h 26mn
Bit rate mode : Variable
Bit rate : 2 589 Kbps
Width : 1 280 pixels
Height : 720 pixels
Display aspect ratio : 16:9
Frame rate mode : Constant
Frame rate : 29.970 fps
Color space : YUV
Chroma subsampling : 4:2:0
Bit depth : 8 bits
Scan type : Progressive
Bits/(Pixel*Frame) : 0.094
Stream size : 2.66 GiB (96%)

Audio
ID : 1
Format : AAC
Format/Info : Advanced Audio Codec
Format profile : LC
Codec ID : 40
Duration : 2h 26mn
Bit rate mode : Constant
Bit rate : 96.0 Kbps
Channel(s) : 2 channels
Channel positions : Front: L R
Sampling rate : 48.0 KHz
Compression mode : Lossy
Stream size : 99.2 MiB (4%)

 

 

 

 

 

 

IPW UK CZW 2018 05 13 Extreme Measures 720p WEB NCMP Watch / Download

 

 

 

 

Watch online

 

 

Waiting finish converting video

 

 

Server 1

 

 

 

 

 

 

 

 

 

 

 

 

 

 

 

 

Server 2

 

 

 

 

 

 

 

 

 

 

 

 

 

 

Uploaded By Site DX-TV.com

 

 

 

open rar file to see this password

 

 

 

 

The password is : DX-TV.com

 

 

 

 

 

Uploaded.net + rapidgator.net

 

 

 

 

 
http://shrt10.com/R5bIHp8m

 
http://shrt10.com/aHHlt
 

 

 

 

 

 

 

 

 

 

IPW UK CZW 2018 05 13 Extreme Measures 720p WEB NCMP Watch / Download