iMPACT Wrestling 2018 05 24 WEB HEEL /720p Watch / Download

iMPACT Wrestling 2018 05 24 WEB HEEL /720p Watch / Download

 

 

 

 


 

 

dx-tv.com

 

 

 

 

Complete name : iMPACT.Wrestling.2018.05.24.WEB.h264-HEEL.mp4
Format : MPEG-4
Format profile : Base Media
Codec ID : isom
File size : 1.19 GiB
Duration : 1h 31mn
Overall bit rate : 1 868 Kbps
Writing application : Lavf58.2.103

Video
ID : 1
Format : AVC
Format/Info : Advanced Video Codec
Codec ID : avc1
Codec ID/Info : Advanced Video Coding
Duration : 1h 31mn
Bit rate mode : Constant
Bit rate : 1 800 Kbps
Width : 960 pixels
Height : 540 pixels
Display aspect ratio : 16:9
Frame rate mode : Constant
Frame rate : 29.970 fps
Color space : YUV
Chroma subsampling : 4:2:0
Bit depth : 8 bits
Scan type : Progressive
Bits/(Pixel*Frame) : 0.116
Stream size : 1.15 GiB (96%)

Audio
ID : 2
Format : AAC
Format/Info : Advanced Audio Codec
Format profile : HE-AAC / LC
Codec ID : 40
Duration : 1h 31mn
Bit rate mode : Constant
Bit rate : 62.8 Kbps
Channel(s) : 2 channels
Channel positions : Front: L R
Sampling rate : 44.1 KHz / 22.05 KHz
Compression mode : Lossy
Stream size : 41.0 MiB (3%)
 

 

 

 

 

 
Title: iMPACT.Wrestling.2018.05.24.720p.WEB.h264-HEEL
Released: 2018.05.24
Source: WEB
Resolution: 1280 x 720 @ 29.970 FPS
Video: H.264 @ 4500 kbps
Audio: HE-AAC @ 64 kbps
Size: 2.91 GB
Runtime: 1h 31mn

 

 

 

 

 

 

 

iMPACT Wrestling 2018 05 24 WEB HEEL /720p Watch / Download

 

 

 

 

Watch online

 

 

Waiting finish converting video

 

 

Server 1

 

 

 

 

 

 

 

 

 

 

 

 

 

 

 

 

 

Server 2

 

 

 

 

 

 

 

 

 

 

 

 

Uploaded By Site DX-TV.com

 

 

 

open rar file to see this password

 

 

 

 

The password is : DX-TV.com

 

 

 

 

400p+720p

 

 

 

 

 

Uploaded.net + rapidgator.net

 

 

 

 

 

 
http://shrt10.com/egYxKkA
 

http://shrt10.com/GKXX4
 

http://shrt10.com/mQ3Qt
 

http://shrt10.com/qJ0Nyn
 

 

 

 

 

 

 

iMPACT Wrestling 2018 05 24 WEB HEEL /720p Watch / Download

Support HVIPS

Please Disable Ad-Block To View This site. just help us to continue this work