iMPACT Wrestling 2018 04 12 HDTV Ebi /720p Watch / Download

iMPACT Wrestling 2018 04 12 HDTV Ebi /720p Watch / Download

 

 

 

 

 

wwe

 

 

 

 

 

Complete name : iMPACT.Wrestling.2018.04.12.HDTV.x264-Ebi.mp4
Format : MPEG-4
Format profile : Base Media / Version 2
Codec ID : mp42
File size : 951 MiB
Duration : 1h 31mn
Overall bit rate : 1 453 Kbps
Encoded date : UTC 2018-04-12 14:33:48
Tagged date : UTC 2018-04-12 14:33:48

Video
ID : 1
Format : AVC
Format/Info : Advanced Video Codec
Format profile : High@L3.1
Codec ID : avc1
Codec ID/Info : Advanced Video Coding
Duration : 1h 31mn
Bit rate mode : Variable
Bit rate : 1 300 Kbps
Width : 712 pixels
Height : 400 pixels
Display aspect ratio : 16:9
Frame rate mode : Constant
Frame rate : 29.970 fps
Color space : YUV
Chroma subsampling : 4:2:0
Bit depth : 8 bits
Scan type : Progressive
Bits/(Pixel*Frame) : 0.152
Stream size : 842 MiB (89%)

Audio
ID : 2
Format : AAC
Format/Info : Advanced Audio Codec
Format profile : LC
Codec ID : 40
Duration : 1h 31mn
Bit rate mode : Variable
Bit rate : 160 Kbps
Channel(s) : 2 channels
Channel positions : Front: L R
Sampling rate : 48.0 KHz
Compression mode : Lossy
Stream size : 105 MiB (11%)
Title : Stereo
Encoded date : UTC 2018-04-12 14:33:48
Tagged date : UTC 2018-04-12 14:33:48

 

 

 

 

 

 
iMPACT.Wrestling.2018.04.12.720p.HDTV.x264-Ebi
Release Info:
Show Name: iMPACT Wrestling
Genre: Wrestling
Release Date: 2018-04-12(UK)
Air Date: 2018-04-12(US)
Source : HDTV
Container: MP4
Video: x264, 4652Kbps, 29,970fps, 1280×720, 16:9
Audio: AAC, 192bps, 48KHz, 2ch
Size: 2.97 GB
Runtime: 1h 31mn

 

 

 

 

 

 

 

 

iMPACT Wrestling 2018 04 12 HDTV Ebi /720p Watch / Download

 

 

 

 

Watch online

 

 

Waiting finish converting video

 

 

Server 1

 

 

 

 

 

 

 

 

 

 

 

 

 

Server 2

 

 

 

 

 


 

 

 

 

Uploaded By Site DX-TV.com

 

 

 

open rar file to see this password

 

 

 

 

The password is : DX-TV.com

 

 

 

 

400p+720p

 

 

 

 

 

Uploaded.net + rapidgator.net

 

 

 

 

 

http://shrt10.com/qOXz

 

http://shrt10.com/5sYE

 

 

http://shrt10.com/gD2Z

 

 

http://shrt10.com/ZStG;

 

 

 

 

 

 

 

iMPACT Wrestling 2018 04 12 HDTV Ebi /720p Watch / Download

Support HVIPS

Please Disable Ad-Block To View This site. just help us to continue this work