House of Hardcore 41 2018 04 28 mp4 Watch / Download

House of Hardcore 41 2018 04 28 mp4 Watch / Download

 

 

 

 


 

 

 

dx-tv.com

 

 

 

 

 

 

 

 
Complete name : House.of.Hardcore.41.2018.04.28.TwitchRip.mp4
Format : MPEG-4
Format profile : Base Media
Codec ID : isom
File size : 1.57 GiB
Duration : 2h 3mn
Overall bit rate : 1 808 Kbps

Video
ID : 2
Format : AVC
Format/Info : Advanced Video Codec
Codec ID/Info : Advanced Video Coding
Duration : 2h 3mn
Bit rate mode : Variable
Bit rate : 1 637 Kbps
Width : 908 pixels
Height : 512 pixels
Display aspect ratio : 16:9
Frame rate mode : Variable
Frame rate : 29.703 fps
Original frame rate : 30.000 fps
Minimum frame rate : 0.500 fps
Maximum frame rate : 30.296 fps
Color space : YUV
Chroma subsampling : 4:2:0
Bit depth : 8 bits
Scan type : Progressive
Bits/(Pixel*Frame) : 0.119
Stream size : 1.42 GiB (91%)

Audio
ID : 1
Format : AAC
Format/Info : Advanced Audio Codec
Format profile : LC
Codec ID : 40
Duration : 2h 3mn
Bit rate mode : Variable
Bit rate : 160 Kbps
Maximum bit rate : 177 Kbps
Channel(s) : 2 channels
Channel positions : Front: L R
Sampling rate : 44.1 KHz
Compression mode : Lossy
Stream size : 142 MiB (9%)

 

 

 

 

 

 

House of Hardcore 41 2018 04 28 mp4 Watch / Download

 

 

 

 

Watch online

 

 

Waiting finish converting video

 

 

Server 1

 

 

 

 

 

 

 

 

 

 

 

 

 

Server 2

 

 

 

 

 

 

 

 


 

 

 

 

 

Uploaded By Site DX-TV.com

 

 

 

open rar file to see this password

 

 

 

 

The password : DX-TV.com

 

 

 

 

 

Uploaded.net + rapidgator.net

 

 

 

 

 

 

 
http://shrt10.com/H3N2x

 
http://shrt10.com/LltQ
 

 

 

 

 

 

 

 

 

 

House of Hardcore 41 2018 04 28 mp4 Watch / Download