Fight Club Pro International Tekkers 29 06 2018 540p Watch / Download

Fight Club Pro International Tekkers 29 06 2018 540p Watch / Download

 

 

 

 


 

 

dx-tv.com

 

 

 

 

 

Complete name : International Tekkers 2018 540p.mp4
Format : MPEG-4
Format profile : Base Media / Version 2
Codec ID : mp42
File size : 1.67 GiB
Duration : 2h 26mn
Overall bit rate : 1 636 Kbps
Encoded date : UTC 2018-07-04 18:32:56
Tagged date : UTC 2018-07-04 18:32:56

Video
ID : 1
Format : AVC
Format/Info : Advanced Video Codec
Codec ID : avc1
Codec ID/Info : Advanced Video Coding
Duration : 2h 26mn
Bit rate mode : Variable
Bit rate : 1 500 Kbps
Width : 960 pixels
Height : 540 pixels
Display aspect ratio : 16:9
Frame rate mode : Constant
Frame rate : 25.000 fps
Color space : YUV
Chroma subsampling : 4:2:0
Bit depth : 8 bits
Scan type : Progressive
Bits/(Pixel*Frame) : 0.116
Stream size : 1.53 GiB (91%)

Audio
ID : 2
Format : AAC
Format/Info : Advanced Audio Codec
Format profile : LC
Codec ID : 40
Duration : 2h 26mn
Bit rate mode : Variable
Bit rate : 137 Kbps
Channel(s) : 2 channels
Channel positions : Front: L R
Sampling rate : 48.0 KHz
Compression mode : Lossy
Stream size : 144 MiB (8%)
Encoded date : UTC 2018-07-04 18:32:56
Tagged date : UTC 2018-07-04 18:32:56

 

 

 

Fight Club Pro International Tekkers 29 06 2018 540p Watch / Download

 

 

 

 

Watch online

 

 

Waiting finish converting video

 

 

Server 1

 

 

 

 

 

 

 

 

 

 

 

 

 

 

 

Server 2

 

 

 

 

 

 

 

 

 

 

 

 

 

 

 

Uploaded By Site DX-TV.com

 

 

 

open rar file to see this password

 

 

 

 

The password : DX-TV.com

 

 

 

 

Uploaded.net + rapidgator.net

 

 

 
http://shrt10.com/TTFbxB

http://shrt10.com/IqYfVlFs
 

 

 

 

Fight Club Pro International Tekkers 29 06 2018 540p Watch / Download