EVOLVE 107 2018 06 24 720p WEB iNDYHEEL Watch /Download

EVOLVE 107 2018 06 24 720p WEB iNDYHEEL Watch /Download

 

 

 

 

 

 

dx-tv

 

 

 

 

 

Complete name : EVOLVE.107.2018.06.24.720p.WEB.h264-iNDYHEEL.mp4
Format : MPEG-4
Format profile : Base Media
Codec ID : isom
File size : 2.48 GiB
Duration : 2h 24mn
Overall bit rate : 2 447 Kbps
Encoded date : UTC 2018-06-25 07:56:00
Tagged date : UTC 2018-06-25 07:56:00

Video
ID : 1
Format : AVC
Format/Info : Advanced Video Codec
Codec ID : avc1
Codec ID/Info : Advanced Video Coding
Duration : 2h 24mn
Bit rate mode : Variable
Bit rate : 2 315 Kbps
Maximum bit rate : 3 718 Kbps
Width : 1 280 pixels
Height : 720 pixels
Display aspect ratio : 16:9
Frame rate mode : Variable
Frame rate : 29.894 fps
Minimum frame rate : 0.154 fps
Maximum frame rate : 30.303 fps
Color space : YUV
Chroma subsampling : 4:2:0
Bit depth : 8 bits
Scan type : Progressive
Bits/(Pixel*Frame) : 0.084
Stream size : 2.34 GiB (95%)

Audio
ID : 2
Format : AAC
Format/Info : Advanced Audio Codec
Format profile : LC
Codec ID : 40
Duration : 2h 24mn
Bit rate mode : Variable
Bit rate : 126 Kbps
Maximum bit rate : 147 Kbps
Channel(s) : 2 channels
Channel positions : Front: L R
Sampling rate : 48.0 KHz
Compression mode : Lossy
Stream size : 130 MiB (5%)

 

 

 

 

 

 

EVOLVE 107 2018 06 24 720p WEB iNDYHEEL Watch /Download

 

 

 

 

Watch online

 

 

Waiting finish converting video

 

 

Server 1

 

 

 

 

 

 

 

 

 

 

 

 

 

 

 

 

 

 

Server 2

 

 

 

 

 

 

 

 

 

 

 

 

 

 

 

 

 

Uploaded By Site DX-TV.com

 

 

 

open rar file to see this password

 

 

 

 

The password is : DX-TV.com

 

 

 

 

Uploaded.net + rapidgator.net

 

 

 

 

 

 

http://shrt10.com/h33HCcg

 

 

 

 

http://shrt10.com/OaCFyLsU

 

 

 

 

 

 

 

 

 

 

EVOLVE 107 2018 06 24 720p WEB iNDYHEEL Watch /Download