EVOLVE 106 2018 06 23 720p WEB iNDYHEEL Watch /Download

EVOLVE 106 2018 06 23 720p WEB iNDYHEEL Watch /Download

 

 

 

 

 

 

dx-tv

 

 

 

 

 

 

 
Complete name : EVOLVE.106.2018.06.23.720p.WEB.h264-iNDYHEEL.mp4
Format : MPEG-4
Format profile : Base Media
Codec ID : isom
File size : 2.88 GiB
Duration : 3h 0mn
Overall bit rate : 2 286 Kbps
Encoded date : UTC 2018-06-24 07:53:37
Tagged date : UTC 2018-06-24 07:53:37

Video
ID : 1
Format : AVC
Format/Info : Advanced Video Codec
Codec ID : avc1
Codec ID/Info : Advanced Video Coding
Duration : 3h 0mn
Bit rate mode : Variable
Bit rate : 2 154 Kbps
Maximum bit rate : 3 932 Kbps
Width : 1 280 pixels
Height : 720 pixels
Display aspect ratio : 16:9
Frame rate mode : Variable
Frame rate : 29.970 fps
Minimum frame rate : 29.412 fps
Maximum frame rate : 30.303 fps
Color space : YUV
Chroma subsampling : 4:2:0
Bit depth : 8 bits
Scan type : Progressive
Bits/(Pixel*Frame) : 0.078
Stream size : 2.71 GiB (94%)

Audio
ID : 2
Format : AAC
Format/Info : Advanced Audio Codec
Format profile : LC
Codec ID : 40
Duration : 3h 0mn
Bit rate mode : Variable
Bit rate : 126 Kbps
Maximum bit rate : 146 Kbps
Channel(s) : 2 channels
Channel positions : Front: L R
Sampling rate : 48.0 KHz
Compression mode : Lossy
Stream size : 163 MiB (6%)
Tagged date : UTC 2018-06-24 07:56:03

 

 

 

 

 

 

 

 

EVOLVE 106 2018 06 23 720p WEB iNDYHEEL Watch /Download

 

 

 

 

Watch online

 

 

Waiting finish converting video

 

 

Server 1

 

 

 

 

 

 

 

 

 

 

 

 

 

 

 

 

 

Server 2

 

 

 

 

 

 

 

 


 

 

 

 

 

 

 

 

 

Uploaded By Site DX-TV.com

 

 

 

open rar file to see this password

 

 

 

 

The password is : DX-TV.com

 

 

 

 

Uploaded.net + rapidgator.net

 

 

 

 

 

 

 

http://shrt10.com/bKZKQ

 
http://shrt10.com/u8co
 

 

 

 

 

 

 

 

 

EVOLVE 106 2018 06 23 720p WEB iNDYHEEL Watch /Download

Support HVIPS

Please Disable Ad-Block To View This site. just help us to continue this work