EVOLVE 105 720p WEB DL Watch / Download

EVOLVE 105 720p WEB DL Watch / Download

 

 

 

 


 

 

dx-tv.com

 

 

 

 

 

 

Complete name : EVOLVE 105 720p WEB DL.mp4
Format : MPEG-4
Format profile : Base Media
Codec ID : isom
File size : 3.38 GiB
Duration : 3h 31mn
Overall bit rate : 2 291 Kbps
Writing application : Lavf57.83.100

Video
ID : 1
Format : AVC
Format/Info : Advanced Video Codec
Codec ID : avc1
Codec ID/Info : Advanced Video Coding
Duration : 3h 31mn
Bit rate mode : Variable
Bit rate : 2 158 Kbps
Width : 1 280 pixels
Height : 720 pixels
Display aspect ratio : 16:9
Frame rate mode : Variable
Frame rate : 29.939 fps
Minimum frame rate : 0.207 fps
Maximum frame rate : 30.303 fps
Color space : YUV
Chroma subsampling : 4:2:0
Bit depth : 8 bits
Scan type : Progressive
Bits/(Pixel*Frame) : 0.078
Stream size : 3.19 GiB (94%)

Audio
ID : 2
Format : AAC
Format/Info : Advanced Audio Codec
Format profile : LC
Codec ID : 40
Duration : 3h 31mn
Bit rate mode : Constant
Bit rate : 122 Kbps
Channel(s) : 2 channels
Channel positions : Front: L R
Sampling rate : 48.0 KHz
Compression mode : Lossy
Stream size : 185 MiB (5%)

 

 

 

 

 

 

 

EVOLVE 105 720p WEB DL Watch / Download

 

 

 

 

Watch online

 

 

Waiting finish converting video

 

 

Server 1

 

 

 

 

 

 

 

 

 

 

 

 

 

 

 

Server 2

 

 

 

 

 

 

 

 

 

 

 

 

 

 

Uploaded By Site DX-TV.com

 

 

 

open rar file to see this password

 

 

 

 

The password is : DX-TV.com

 

 

 

 

 

Uploaded.net + rapidgator.net

 

 

 

 

 

 

 
http://shrt10.com/gVxUO

 
http://shrt10.com/SBD9GINW
 

 

 

 

 

 

 

 

 

 

EVOLVE 105 720p WEB DL Watch / Download

Support HVIPS

Please Disable Ad-Block To View This site. just help us to continue this work