ESPN 30 for 30 Season 3 Episode 30 2018 The Two Bills Watch / Download

ESPN 30 for 30 Season 3 Episode 30 2018 The Two Bills Watch / Download

 

 

 

 


 

dx-tv.com

 

 

 

 

 

 

Complete name : 30.for.30.s03e30.the.two.bills.web DL.mp4
Format : MPEG-4
Format profile : Base Media
Codec ID : isom
File size : 573 MiB
Duration : 1h 17mn
Overall bit rate : 1 037 Kbps
Writing application : Lavf57.83.100

Video
ID : 1
Format : AVC
Format/Info : Advanced Video Codec
Codec ID : avc1
Codec ID/Info : Advanced Video Coding
Duration : 1h 17mn
Bit rate mode : Variable
Bit rate : 899 Kbps
Width : 854 pixels
Height : 480 pixels
Display aspect ratio : 16:9
Original display aspect ratio : 16:9
Frame rate mode : Variable
Frame rate : 29.970 fps
Minimum frame rate : 18.182 fps
Maximum frame rate : 60.150 fps
Color space : YUV
Chroma subsampling : 4:2:0
Bit depth : 8 bits
Scan type : Progressive
Bits/(Pixel*Frame) : 0.073
Stream size : 496 MiB (87%)

Audio
ID : 2
Format : AAC
Format/Info : Advanced Audio Codec
Format profile : LC
Codec ID : 40
Duration : 1h 17mn
Bit rate mode : Constant
Bit rate : 128 Kbps
Channel(s) : 2 channels
Channel positions : Front: L R
Sampling rate : 48.0 KHz
Compression mode : Lossy
Stream size : 70.8 MiB (12%)
Language : English

 

 

 

 

ESPN 30 for 30 Season 3 Episode 30 2018 The Two Bills Watch / Download

 

 

 

 

Watch online

 

 

Waiting finish converting video

 

 

Server 1

 

 

 

 

 

 

 

 

 

 

 

 

 

 

 

 

 

Server 2

 

 

 

 

 

 

 

 

 

 

 

 

 

 

 

Uploaded By Site DX-TV.com

 

 

 

open rar file to see this password

 

 

 

 

The password : DX-TV.com

 

 

 

 

Uploaded.net + rapidgator.net

 

 

 

 

 

 

http://shrt10.com/3QKF

 

 

 

 

http://shrt10.com/Sry8

 

 

 

 

 

 

ESPN 30 for 30 Season 3 Episode 30 2018 The Two Bills Watch / Download