ESPN 30 For 30 S03E29 Featuring The Nature Boy Ric Flair 2017 1080p

ESPN 30 For 30 S03E29 Featuring The Nature Boy Ric Flair 2017 1080p

 

 

 

 

 

 

wwe

 

 

 

 

 

 

Complete name : ESPN 30 For 30 S03E29 Featuring The Nature Boy Ric Flair 2017 1080p.mkv
Format : Matroska
File size : 5.48 GiB
Duration : 1h 17mn
Overall bit rate : 10.2 Mbps

Video
ID : 1
Format : AVC
Duration : 1h 17mn
Bit rate mode : Variable
Bit rate : 9 755 Kbps
Maximum bit rate : 15.0 Mbps
Width : 1 920 pixels
Height : 1 080 pixels
Display aspect ratio : 16:9
Frame rate : 23.976 fps
Color space : YUV
Chroma subsampling : 4:2:0
Bit depth : 8 bits
Scan type : Progressive
Bits/(Pixel*Frame) : 0.196
Stream size : 5.25 GiB (96%)

Audio
ID : 2
Format : E-AC-3
Codec ID : A_EAC3
Duration : 1h 17mn
Bit rate mode : Constant
Bit rate : 224 Kbps
Channel(s) : 2 channels
Channel positions : Front: L R
Sampling rate : 48.0 KHz
Compression mode : Lossy
Stream size : 124 MiB (2%)
Language : English

Text
ID : 3
Format : UTF-8
Codec ID : S_TEXT/UTF8
Codec ID/Info : UTF-8 Plain Text
Language : English

 

 

 

 

 

 

 

 

 

 

 

 

 

 

 

 

ESPN 30 For 30 S03E29 Featuring The Nature Boy Ric Flair 2017 1080p

 

 

 

 

 

Uploaded By Site DX-TV.com

 

 

 

open rar file to see this password

 

 

 

 

The password is : DX-TV.com

 

 

 

 

1080p

 

 

 

 

Uploaded.net

 

 

 

 

 

 

http://shrt10.com/zLR7v

 

 

 

 

 

http://shrt10.com/qkeL

 

 

 

 

 

 

rapidgator.net

 

 

 

 

 

 

 

http://shrt10.com/E7crrJ

 

 

 

 

 

http://shrt10.com/HQCh7v

 

 

 

 

 

ESPN 30 For 30 S03E29 Featuring The Nature Boy Ric Flair 2017 1080p