Download WWE Survivor Series PPV 2017 1080i WWE Network HDTV Ebi

Download WWE Survivor Series PPV 2017 1080i WWE Network HDTV Ebi

 

 

 

 

 

 

wwe

 

 

 

 

 

 

 

 
Complete name :WWE.Survivor.Series.PPV.2017.1080i.WWE.Network.HDTV.x264-Ebi.mp4
Format : MPEG-4
Codec ID : mp42
File size : 13.9 GiB
Duration : 3h 47mn
Overall bit rate : 8 732 Kbps

Video
ID : 1
Format : AVC
Duration : 3h 47mn
Bit rate mode : Variable
Bit rate : 8 500 Kbps
Width : 1 920 pixels
Height : 1 080 pixels
Display aspect ratio : 16:9
Frame rate mode : Constant
Frame rate : 29.970 fps
Color space : YUV
Chroma subsampling : 4:2:0
Bit depth : 8 bits
Scan type : Progressive
Bits/(Pixel*Frame) : 0.137
Stream size : 13.5 GiB (97%)

Audio
ID : 2
Format : AAC
Format profile : LC
Codec ID : 40
Duration : 3h 47mn
Bit rate mode : Variable
Bit rate : 224 Kbps
Channel(s) : 2 channels
Channel positions : Front: L R
Sampling rate : 48.0 KHz
Compression mode : Lossy
Stream size : 364 MiB (3%)
Title : Stereo

 

 

 

 

 

 

 

 

 

 

 

 

 

 

 

Download WWE Survivor Series PPV 2017 1080i WWE Network HDTV Ebi

 

 

 

 

 

 

Uploaded By Site DX-TV.com

 

 

 

open rar file to see this password

 

 

 

 

The password is : DX-TV.com

 

 

 

 

1080p

 

 

 

 

Uploaded.net

 

 

 

 

 

 

 

 

 

 
http://shrt10.com/KS7Hqr6

 

 

 

 

http://shrt10.com/jHXmcl

 

 

 

 

http://shrt10.com/y7DB

 

 

 

 

 

 

 

 

 

rapidgator.net

 

 

 

 

 

 

 

 

http://shrt10.com/ueD4

 

 

 

 

http://shrt10.com/3mYZ5Hy

 

 

 

 

http://shrt10.com/5HQOU08

 

 

 

 

 

 

 

 

Download WWE Survivor Series PPV 2017 1080i WWE Network HDTV Ebi