Download WWE Smackdown Live 2018 08 07 720p HDTV KYR

Download WWE Smackdown Live 2018 08 07 720p HDTV KYR

 

 

 

 


 

 

dx-tv.com

 

 

 

 

 

 
Complete name : WWE.Smackdown.Live.2018.08.07.720p.HDTV.x264-KYR.mkv
Format : Matroska
Format version : Version 4 / Version 2
File size : 2.96 GiB
Duration : 1 h 24 min
Overall bit rate : 5 008 kb/s

Video
ID : 1
Format : AVC
Format/Info : Advanced Video Codec
Codec ID : V_MPEG4/ISO/AVC
Duration : 1 h 24 min
Bit rate : 4 620 kb/s
Width : 1 280 pixels
Height : 720 pixels
Display aspect ratio : 16:9
Frame rate mode : Constant
Color space : YUV
Chroma subsampling : 4:2:0
Bit depth : 8 bits
Scan type : Progressive
Bits/(Pixel*Frame) : 0.084
Stream size : 2.73 GiB (92%)
Default : Yes
Forced : No
Color range : Limited
Matrix coefficients : BT.709

Audio
ID : 2
Format : AC-3
Codec ID : A_AC3
Duration : 1 h 24 min
Bit rate mode : Constant
Bit rate : 384 kb/s
Channel(s) : 6 channels
Sampling rate : 48.0 kHz
Frame rate : 31.250 FPS (1536 SPF)
Bit depth : 16 bits
Compression mode : Lossy
Stream size : 232 MiB (8%)
Service kind : Complete Main
Default : Yes
Forced : No

 

 

Download WWE Smackdown Live 2018 08 07 720p HDTV KYR

 

 

 

 

 

 

 

Uploaded By Site DX-TV.com

 

 

 

open rar file to see this password

 

 

 

 

The password : DX-TV.com

 

 

 

 

 

 

Uploaded.net + rapidgator.net

 

 

 

 

 

 
http://shrt10.com/TIK7se

 

 

 

 

 
http://shrt10.com/tREGZQZ
 

 

 

 

 

 

 

 

Download WWE Smackdown Live 2018 08 07 720p HDTV KYR