Download WWE Smackdown Live 2017 11 21 1080p HDTV Ebi

Download WWE Smackdown Live 2017 11 21 1080p HDTV Ebi

 

 

 

 

 

 

wwe

 

 

 

 

 

 

 

 

 

 

Complete name : WWE.Smackdown.Live.2017.11.21.1080p.HDTV.x264-Ebi.mp4
Format : MPEG-4
Format profile : Base Media / Version 2
Codec ID : mp42
File size : 5.28 GiB
Duration : 1h 26mn
Overall bit rate : 8 727 Kbps

Video
ID : 1
Format : AVC
Format/Info : Advanced Video Codec
Codec ID : avc1
Codec ID/Info : Advanced Video Coding
Duration : 1h 26mn
Bit rate mode : Variable
Bit rate : 8 500 Kbps
Width : 1 920 pixels
Height : 1 080 pixels
Display aspect ratio : 16:9
Frame rate mode : Constant
Frame rate : 29.970 fps
Color space : YUV
Chroma subsampling : 4:2:0
Bit depth : 8 bits
Scan type : Progressive
Bits/(Pixel*Frame) : 0.137
Stream size : 5.14 GiB (97%)

 

ID : 2
Format : AAC
Format/Info : Advanced Audio Codec
Format profile : LC
Codec ID : 40
Duration : 1h 26mn
Bit rate mode : Variable
Bit rate : 223 Kbps
Channel(s) : 2 channels
Channel positions : Front: L R
Sampling rate : 48.0 KHz
Compression mode : Lossy
Stream size : 138 MiB (3%)
Title : Stereo

 

 

 

 

 

 

 

 

 

 

 

 

Download WWE Smackdown Live 2017 11 21 1080p HDTV Ebi

 

 

 

 

 

 

Uploaded By Site DX-TV.com

 

 

 

open rar file to see this password

 

 

 

 

The password is : DX-TV.com

 

 

 

 

1080p

 

 

 

 

Uploaded.net

 

 

 

 

 

 

 

 

http://shrt10.com/GIWm4ID

 

 

 

 

 

http://shrt10.com/ITaj1V

 

 

 

 

 

 

 

 

 

rapidgator.net

 

 

 

 

 

 

 

 

http://shrt10.com/Z2tNYJy

 

 

 

 

 

http://shrt10.com/gEeV

 

 

 

 

 

 

 

 

 

Download WWE Smackdown Live 2017 11 21 1080p HDTV Ebi