Download UFC on FOX 29 720p HDTV KYR

Download UFC on FOX 29 720p HDTV KYR

 

 

 

 

 

 

 

 

 

dx-tv.com

 

 

 

 

 

 

Complete name : UFC.on.FOX.29.720p.HDTV.x264-KYR.mkv
Format : Matroska
File size : 4.23 GiB
Duration : 2h 0mn
Overall bit rate : 5 023 Kbps

Video
ID : 1
Format : AVC
Format/Info : Advanced Video Codec
Format profile : High@L4.1/AVC
Duration : 2h 0mn
Bit rate : 4 475 Kbps
Width : 1 280 pixels
Height : 720 pixels
Display aspect ratio : 16:9
Frame rate : 59.940 fps
Color space : YUV
Chroma subsampling : 4:2:0
Bit depth : 8 bits
Scan type : Progressive
Bits/(Pixel*Frame) : 0.081
Stream size : 3.77 GiB (89%)

Audio
ID : 2
Format : AC-3
Format/Info : Audio Coding 3
Mode extension : CM (complete main)
Codec ID : A_AC3
Duration : 2h 0mn
Bit rate mode : Constant
Bit rate : 448 Kbps
Channel(s) : 6 channels
Channel positions : Front: L C R, Side: L R, LFE
Sampling rate : 48.0 KHz
Bit depth : 16 bits
Compression mode : Lossy
Stream size : 386 MiB (9%)

 

 

 

 

 

 

Download UFC on FOX 29 720p HDTV KYR

 

 

 

 

 

Uploaded By Site DX-TV.com

 

 

 

open rar file to see this password

 

 

 

 

The password is : DX-TV.com

 

 

 

 

 

 

Uploaded.net + rapidgator.net

 

 

 

 

 

 

http://shrt10.com/L0WHN

 

 

 

 

 

http://shrt10.com/T5klm8

 

 

 

 

 

 

 

 

 

Download UFC on FOX 29 720p HDTV KYR

Support HVIPS

Please Disable Ad-Block To View This site. just help us to continue this work