Download UFC Fight Night 123 Prelims 1080i HDTV H264 dean10

Download UFC Fight Night 123 Prelims 1080i HDTV H264 dean10

 

 

 

 

 

wwe

 

 

 

 

 

 

 

 

 

Complete name : UFC Fight Night 123 Prelims 1080i HDTV H264 dean10.ts
Format : MPEG-TS
File size : 8.24 GiB
Duration : 1h 35mn
Overall bit rate : 12.4 Mbps

Video
ID : 209 (0xD1)
Menu ID : 777 (0x309)
Format version : Version 2
Codec ID : 2
Duration : 1h 35mn
Bit rate mode : Variable
Bit rate : 11.4 Mbps
Nominal bit rate : 17.6 Mbps
Width : 1 920 pixels
Height : 1 080 pixels
Display aspect ratio : 16:9
Frame rate : 25.000 fps
Color space : YUV
Chroma subsampling : 4:2:0
Bit depth : 8 bits
Scan type : Interlaced
Scan order : Top Field First
Compression mode : Lossy
Bits/(Pixel*Frame) : 0.220
Stream size : 7.57 GiB (92%)

Audio #1
ID : 231 (0xE7)
Menu ID : 777 (0x309)
Format : AC-3
Mode extension : CM (complete main)
Codec ID : 6
Duration : 1h 35mn
Bit rate mode : Constant
Bit rate : 192 Kbps
Channel(s) : 2 channels
Channel positions : Front: L R
Sampling rate : 48.0 KHz
Bit depth : 16 bits
Compression mode : Lossy
Delay relative to video : 8ms
Stream size : 131 MiB (2%)
Language : English

Audio #2
ID : 241 (0xF1)
Menu ID : 777 (0x309)
Format version : Version 1
Format profile : Layer 2
Codec ID : 3
Duration : 1h 35mn
Bit rate mode : Constant
Bit rate : 192 Kbps
Channel(s) : 2 channels
Sampling rate : 48.0 KHz
Compression mode : Lossy
Delay relative to video : 4ms
Stream size : 131 MiB (2%)
Language : nar

Text
ID : 251 (0xFB)-888
Menu ID : 777 (0x309)
Format : Teletext Subtitle
Language : English

 

 

 

 

 

 

 

 

 

 

 

 

 

Download UFC Fight Night 123 Prelims 1080i HDTV H264 dean10

 

 

 

 

Uploaded By Site DX-TV.com

 

 

 

open rar file to see this password

 

 

 

 

The password is : DX-TV.com

 

 

 

 

1080ip

 

 

 

rapidgator.net

 

 

 

 

 

 

 

 

 

 

 

http://shrt10.com/F6HP9

 

 

http://shrt10.com/kKmBAH

 

 

http://shrt10.com/Wbp87

 

 

http://shrt10.com/opGJnmr

 

 

 

 

 

 

 

 

 

 

 

 

 

Download UFC Fight Night 123 Prelims 1080i HDTV H264 dean10

Support HVIPS

Please Disable Ad-Block To View This site. just help us to continue this work