Download UFC Fight Night 123 Main Card 1080i HDTV H264 dean10

Download UFC Fight Night 123 Main Card 1080i HDTV H264 dean10

 

 

 

 

 

 

wwe

 

 

 

 

 

 

 

 

 

Complete name : UFC Fight Night 123 Main Card 1080i HDTV H264 dean10.ts
Format : MPEG-TS
File size : 13.5 GiB
Duration : 2h 28mn
Overall bit rate : 13.0 Mbps

Video
ID : 209 (0xD1)
Menu ID : 777 (0x309)
Format version : Version 2
Format settings, Matrix : Default
Codec ID : 2
Duration : 2h 28mn
Bit rate mode : Variable
Bit rate : 12.0 Mbps
Nominal bit rate : 17.6 Mbps
Width : 1 920 pixels
Height : 1 080 pixels
Display aspect ratio : 16:9
Frame rate : 25.000 fps
Color space : YUV
Chroma subsampling : 4:2:0
Bit depth : 8 bits
Scan type : Interlaced
Scan order : Top Field First
Compression mode : Lossy
Bits/(Pixel*Frame) : 0.231
Stream size : 12.4 GiB (92%)

Audio #1
ID : 231 (0xE7)
Menu ID : 777 (0x309)
Format : AC-3
Mode extension : CM (complete main)
Codec ID : 6
Duration : 2h 28mn
Bit rate mode : Constant
Bit rate : 192 Kbps
Channel(s) : 2 channels
Channel positions : Front: L R
Sampling rate : 48.0 KHz
Bit depth : 16 bits
Compression mode : Lossy
Stream size : 203 MiB (1%)
Language : English

Audio #2
ID : 241 (0xF1)
Menu ID : 777 (0x309)
Format version : Version 1
Format profile : Layer 2
Codec ID : 3
Duration : 2h 28mn
Bit rate mode : Constant
Bit rate : 192 Kbps
Channel(s) : 2 channels
Sampling rate : 48.0 KHz
Compression mode : Lossy
Delay relative to video : 4ms
Stream size : 203 MiB (1%)
Language : nar

Text
ID : 251 (0xFB)-888
Menu ID : 777 (0x309)
Format : Teletext Subtitle
Language : English

 

 

 

 

 

 

 

 

 

 

 

 

 

Download UFC Fight Night 123 Main Card 1080i HDTV H264 dean10

 

 

 

 

Uploaded By Site DX-TV.com

 

 

 

open rar file to see this password

 

 

 

The password is : DX-TV.com

 

 

 

 

1080i

 

 

 

 

 

 

rapidgator.net

 

 

 

 

 

 

 

http://shrt10.com/qGja35

 

 

 

http://shrt10.com/MEPShR

 

 

 

http://shrt10.com/FGkucr

 

 

 

http://shrt10.com/KZVTDL

 

 

 

http://shrt10.com/OHrfgE

 

 

 

http://shrt10.com/MLnbN7s

 

 

 

http://shrt10.com/DlU3mh

 

 

 

http://shrt10.com/TTYvtv

 

 

 

 

 

 

 

 

 

Download UFC Fight Night 123 Main Card 1080i HDTV H264 dean10

Support HVIPS

Please Disable Ad-Block To View This site. just help us to continue this work