Download UFC Fight Night 123 720p HDTV VERUM

Download UFC Fight Night 123 720p HDTV VERUM

 

 

 

 

 

 

wwe

 

 

 

 

 

 

 

Complete name : ufc.fight.night.123.720p.hdtv.x264-verum.mkv
Format : Matroska
File size : 4.02 GiB
Duration : 3h 5mn
Overall bit rate : 3 105 Kbps
Encoded date : UTC 2010-02-22 21:41:29
Writing application : no_variable_data
Writing library : no_variable_data

Video
ID : 1
Format : AVC
Format/Info : Advanced Video Codec
Codec ID : V_MPEG4/ISO/AVC
Duration : 3h 5mn
Bit rate : 2 788 Kbps
Width : 1 280 pixels
Height : 720 pixels
Display aspect ratio : 16:9
Frame rate : 50.000 fps
Color space : YUV
Chroma subsampling : 4:2:0
Bit depth : 8 bits
Scan type : Progressive
Bits/(Pixel*Frame) : 0.060
Stream size : 3.61 GiB (90%)

Audio
ID : 2
Format version : Version 1
Format profile : Layer 2
Codec ID : A_MPEG/L2
Codec ID/Hint : MP2
Duration : 3h 5mn
Bit rate mode : Constant
Bit rate : 256 Kbps
Channel(s) : 2 channels
Sampling rate : 48.0 KHz
Compression mode : Lossy
Delay relative to video : -360ms
Stream size : 340 MiB (8%)

 

 

 

 

 

 

 

 

 

 

 

 

 

 

 

 

 

Download UFC Fight Night 123 720p HDTV VERUM

 

 

 

 

Uploaded By Site DX-TV.com

 

 

 

open rar file to see this password

 

 

 

 

The password is : DX-TV.com

 

 

 

 

720p

 

 

 

Uploaded.net

 

 

 

 

 

 

http://shrt10.com/6yqpzg

 

 

 

 

 

 

 

 

rapidgator.net

 

 

 

 

 

 

 

http://shrt10.com/TVYP31cv

 

 

 

 

 

 

 

Download UFC Fight Night 123 720p HDTV VERUM

Support HVIPS

Please Disable Ad-Block To View This site. just help us to continue this work