UFC Fight Night 115 Main Card 1080i HDTV H264 RUS-ENG

UFC Fight Night 115 Main Card 1080i HDTV H264 RUS-ENG

 

 

 

 

 

 

wwe

 

 

 

 

 

 

Complete name : UFC Fight Night 115 – Volkov vs Struve_02.08.2017_HDTV 1080i_RU_EN.ts
Format : MPEG-TS
File size : 6.93 GiB
Duration : 2h 11mn
Overall bit rate : 7 565 Kbps

Video
Menu ID : 100 (0x64)
Format : AVC
Format settings, ReFrames : 3 frames
Codec ID : 27
Duration : 2h 11mn
Bit rate mode : Constant
Bit rate : 6 860 Kbps
Width : 1 920 pixels
Height : 1 080 pixels
Display aspect ratio : 16:9
Frame rate : 25.000 fps
Color space : YUV
Chroma subsampling : 4:2:0
Bit depth : 8 bits

Audio #1
Format : MPEG Audio
Duration : 2h 11mn
Bit rate mode : Constant
Bit rate : 192 Kbps
Channel(s) : 2 channels
Sampling rate : 48.0 KHz
Compression mode : Lossy
Stream size : 180 MiB (3%)
Language : Russian

Audio #2
Format : MPEG Audio
Codec ID : 3
Duration : 2h 11mn
Bit rate : 192 Kbps
Channel(s) : 2 channels
Sampling rate : 48.0 KHz
Stream size : 180 MiB (3%)
Language : English

 

 

 

 

 

 

 

 

 

 

 

 

 

 

 

 

 

 

UFC Fight Night 115 Main Card 1080i HDTV H264 RUS-ENG

 

 

 

 

 

Uploaded By Site DX-TV.com

 

 

 

open rar file to see this password

 

 

 

 

The password is : DX-TV.com

 

 

 

 

1080i

 

 

 

Uploaded.net

 

 

 

 

 

 

http://shink.in/ntSPe

 

 

http://shink.in/aLnBJ

 

 

 

 

 

 

rapidgator.net

 

 

 

 

http://shink.in/N1sdM

 

 

 

http://shink.in/HZEPx

 

 

 

 

 

 

UFC Fight Night 115 Main Card 1080i HDTV H264 RUS-ENG

Support HVIPS

Please Disable Ad-Block To View This site. just help us to continue this work