Download UFC 223 Khabib VS Iaquinta PPV 1080i HDTV English

Download UFC 223 Khabib VS Iaquinta PPV 1080i HDTV English

 

 

 

 

 

 

wwe

 

 

 

 

 

 

Complete name : UFC 223 Khabib VS Iaquinta PPV 1080i HDTV English .ts
Format : MPEG-TS
Format/Info : Advanced Video Codec
File size : 8.51 GiB
Duration : 3h 27mn

Video
ID : 7511 (0x1D57)
Menu ID : 7510 (0x1D56)
Format : AVC
Format/Info : Advanced Video Codec
Format profile : High@L4.0
Codec ID : 27
Duration : 3h 27mn
Bit rate mode : Constant
Bit rate : 5 145 Kbps
Width : 1 920 pixels
Height : 1 080 pixels
Display aspect ratio : 16:9
Frame rate : 25.000 fps
Color space : YUV
Chroma subsampling : 4:2:0
Bit depth : 8 bits
Scan type : MBAFF
Bits/(Pixel*Frame) : 0.099

Audio #1 : 
ID : 7512 (0x1D58)
Format version : Version 1
Format profile : Layer 2
Codec ID : 3
Duration : 3h 27mn
Bit rate mode : Constant
Bit rate : 192 Kbps
Channel(s) : 2 channels
Sampling rate : 48.0 KHz
Compression mode : Lossy
Delay relative to video : -452ms
Stream size : 285 MiB (3%)

Audio #2 : English
ID : 7513 (0x1D59)
Format version : Version 1
Format profile : Layer 2
Codec ID : 3
Duration : 3h 27mn
Bit rate mode : Constant
Bit rate : 192 Kbps
Channel(s) : 2 channels
Sampling rate : 48.0 KHz
Compression mode : Lossy
Delay relative to video : -452ms
Stream size : 285 MiB (3%)

 

 

 

Download UFC 223 Khabib VS Iaquinta PPV 1080i HDTV English 

 

 

 

 

 

 

 

Uploaded By Site DX-TV.com

 

 

 

open rar file to see this password

 

 

 

 

The password is : DX-TV.com

 

 

 

 

1080p

 

 

 

 

 

Uploaded.net + rapidgator.net

 

 

 

 

 

http://shrt10.com/DZzD

 

 

http://shrt10.com/jSp62ZTP

 

 

http://shrt10.com/XOB6R

 

 

http://shrt10.com/EjMLu4bD

 

 

http://shrt10.com/D2Rxc2x5

 

 

http://shrt10.com/mVzM

 

 

 

 

 

 

 

 

 

Download UFC 223 Khabib VS Iaquinta PPV 1080i HDTV English