Download UFC 221 PPV 1080i HDTV Full Show HD

Download UFC 221 PPV 1080i HDTV Full Show HD

 

 

 

 

 

 

wwe

 

 

 

 

 
Complete name : UFC.221.PPV.1080i.HDTV.x264.ts
Format : MPEG-TS
Format/Info : Advanced Video Codec
File size : 12.8 GiB
Duration : 2h 25mn
Overall bit rate : 12.6 Mbps

Video
Format : AVC
Format/Info : Advanced Video Codec
Codec ID : 27
Duration : 2h 25mn
Bit rate : 11.7 Mbps
Width : 1 920 pixels
Height : 1 080 pixels
Display aspect ratio : 16:9
Frame rate : 25.000 fps
Color space : YUV
Chroma subsampling : 4:2:0
Bit depth : 8 bits
Scan type : Interlaced
Scan order : Top Field First
Bits/(Pixel*Frame) : 0.226
Stream size : 11.9 GiB (93%)

Audio
ID : 202 (0xCA)
Menu ID : 777 (0x309)
Format version : Version 1
Format profile : Layer 2
Codec ID : 3
Duration : 2h 25mn
Bit rate mode : Constant
Bit rate : 256 Kbps
Channel(s) : 2 channels
Sampling rate : 48.0 KHz
Compression mode : Lossy
Stream size : 266 MiB (2%)
Language : Dutch

 

 

 

 

 

 

 

 

 

 

 

 

Download UFC 221 PPV 1080i HDTV Full Show HD

 

 

 

Uploaded By Site DX-TV.com

 

 

 

open rar file to see this password

 

 

 

 

The password is : DX-TV.com

 

 

 

 

1080i

 

 

 

 

 

Uploaded.net + rapidgator.net

 

 

 

 

 

 

 

 

http://shrt10.com/uyZbk

 

 

http://shrt10.com/RrjFOF1

 

 

http://shrt10.com/W3ciA

 

 

http://shrt10.com/ImIyr3rB

 

 

http://shrt10.com/EeJJ

 

 

http://shrt10.com/mYLt

 

 

http://shrt10.com/3KDO5Bk

 

 

http://shrt10.com/NM0xKt

 

 

 

 

 

Download UFC 221 PPV 1080i HDTV Full Show HD