Watch NJPW 2018 03 18 New Japan Cup Day 8 WEB WD japanes

Watch NJPW 2018 03 18 New Japan Cup Day 8 WEB WD japanes

 

 

 

 

 

 

wwe

 

 

 

 

 

 

 

Complete name : NJPW.2018.03.18.New.Japan.Cup.2018.Night.Eight.WEB.h264-WD.mp4
Format : MPEG-4
Format profile : Base Media
Codec ID : isom
File size : 2.49 GiB
Duration : 2h 57mn
Overall bit rate : 2 011 Kbps
Writing application : Lavf57.73.100

Video
ID : 1
Format : AVC
Format/Info : Advanced Video Codec
Codec ID : avc1
Codec ID/Info : Advanced Video Coding
Duration : 2h 56mn
Bit rate mode : Constant
Bit rate : 1 904 Kbps
Width : 960 pixels
Height : 540 pixels
Display aspect ratio : 16:9
Frame rate mode : Variable
Frame rate : 29.970 fps
Minimum frame rate : 29.412 fps
Maximum frame rate : 30.303 fps
Standard : NTSC
Color space : YUV
Chroma subsampling : 4:2:0
Bit depth : 8 bits
Scan type : Progressive
Bits/(Pixel*Frame) : 0.123
Stream size : 2.36 GiB (95%)

Audio
ID : 2
Format : AAC
Format/Info : Advanced Audio Codec
Format profile : LC
Codec ID : 40
Duration : 2h 57mn
Bit rate mode : Constant
Bit rate : 96.0 Kbps
Channel(s) : 2 channels
Channel positions : Front: L R
Sampling rate : 44.1 KHz
Compression mode : Lossy
Stream size : 122 MiB (5%)

 

 

 

 

 

 

 

 

Watch NJPW 2018 03 18 New Japan Cup Day 8 WEB WD japanes

 

 

 

 

Watch online

 

 

Waiting finish converting video

 

 

Server 1

 

 

 

 

 

 

 

 

 

 

 

 

 

 

 

 

 

 

 

 

 

Server 2

 

 

 

 

 

 

 

 

 

 

 


 

 

 

 

 

 

 

 

Uploaded By Site DX-TV.com

 

 

 

open rar file to see this password

 

 

 

 

The password is : DX-TV.com

 

 

 

 

 

 

 

Uploaded.net + rapidgator.net

 

 

 

 

 

 

http://shrt10.com/zL91Dfs

 

 

 

 

 

 

 

http://shrt10.com/3cOBIeq

 

 

 

 

 

 

 

Watch NJPW 2018 03 18 New Japan Cup Day 8 WEB WD Japanes

Support HVIPS

Please Disable Ad-Block To View This site. just help us to continue this work