CZW 2018 05 12 Prelude To Violence 2018 720p WEB NCMP Watch / Download

CZW 2018 05 12 Prelude To Violence 2018 720p WEB NCMP Watch / Download

 

 

 

 


 

dx-tv.com

 

 

 

 

 

 
Complete name : CZW.2018.05.12.Prelude.To.Violence.2018.720p.WEB.h264-NCMP.mp4
Format : MPEG-4
Format profile : Base Media
Codec ID : isom
File size : 2.40 GiB
Duration : 2h 8mn
Overall bit rate : 2 672 Kbps
Writing application : Lavf55.12.100

Video
ID : 2
Format : AVC
Format/Info : Advanced Video Codec
Codec ID : avc1
Codec ID/Info : Advanced Video Coding
Duration : 2h 8mn
Bit rate mode : Variable
Bit rate : 2 589 Kbps
Width : 1 280 pixels
Height : 720 pixels
Display aspect ratio : 16:9
Frame rate mode : Constant
Frame rate : 29.970 fps
Color space : YUV
Chroma subsampling : 4:2:0
Bit depth : 8 bits
Scan type : Progressive
Bits/(Pixel*Frame) : 0.094
Stream size : 2.32 GiB (97%)

Audio
ID : 1
Format : AAC
Format/Info : Advanced Audio Codec
Format profile : LC
Codec ID : 40
Duration : 2h 8mn
Bit rate mode : Variable
Bit rate : 75.6 Kbps
Maximum bit rate : 78.8 Kbps
Channel(s) : 2 channels
Channel positions : Front: L R
Sampling rate : 48.0 KHz
Compression mode : Lossy
Stream size : 69.4 MiB (3%)

 

 

 

 

 

 

 

CZW 2018 05 12 Prelude To Violence 2018 720p WEB NCMP Watch / Download

 

 

 

 

Watch online

 

 

Waiting finish converting video

 

 

Server 1

 

 

 

 

 

 

 

 

 

 

 

 

 

 

 

 

Server 2

 

 

 

 

 

 

 


 

 

 

Uploaded By Site DX-TV.com

 

 

 

open rar file to see this password

 

 

 

 

The password is : DX-TV.com

 

 

 

 

 

 

Uploaded.net + rapidgator.net

 

 

 

 

 

 

 
http://shrt10.com/o52DHs

 
http://shrt10.com/RkH6Hlch
 

 

 

 

 

 

CZW 2018 05 12 Prelude To Violence 2018 720p WEB NCMP Watch / Download