CHIKARA 2018 04 21 Hour of Power S19E03 720p WEB NCMP Watch / Download

CHIKARA 2018 04 21 Hour of Power S19E03 720p WEB NCMP Watch / Download

 

 

 

 


 

 

dx-tv.com

 

 

 

 

 

Complete name : CHIKARA.2018.04.21.Hour.of.Power.S19E03.720p.WEB.h264-NCMP.mp4
Format : MPEG-4
Format profile : Base Media
Codec ID : isom
File size : 711 MiB
Duration : 1h 1mn
Overall bit rate : 1 626 Kbps

Video
ID : 2
Format : AVC
Format/Info : Advanced Video Codec
Codec ID : avc1
Codec ID/Info : Advanced Video Coding
Duration : 1h 1mn
Bit rate mode : Variable
Bit rate : 1 492 Kbps
Maximum bit rate : 1 800 Kbps
Width : 1 280 pixels
Height : 720 pixels
Display aspect ratio : 16:9
Frame rate mode : Constant
Frame rate : 29.970 fps
Standard : NTSC
Color space : YUV
Chroma subsampling : 4:2:0
Bit depth : 8 bits
Scan type : Progressive
Bits/(Pixel*Frame) : 0.054
Stream size : 653 MiB (92%)

Audio
ID : 1
Format : AAC
Format/Info : Advanced Audio Codec
Format profile : LC
Codec ID : 40
Duration : 1h 1mn
Bit rate mode : Constant
Bit rate : 125 Kbps
Channel(s) : 2 channels
Channel positions : Front: L R
Sampling rate : 48.0 KHz
Compression mode : Lossy
Stream size : 54.8 MiB (8%)

 

 

 

 

 

 

 

CHIKARA 2018 04 21 Hour of Power S19E03 720p WEB NCMP Watch / Download

 

 

 

 

Watch online

 

 

Waiting finish converting video

 

 

Server 1

 

 

 

 

 

 

 

 

 

 

 

 

 

 

 

Server 2

 

 

 

 

 

 


 

 

 

Uploaded By Site DX-TV.com

 

 

 

open rar file to see this password

 

 

 

 

The password is : DX-TV.com

 

 

 

 

 

 

Uploaded.net + rapidgator.net

 

 

 

 

 

http://shrt10.com/ygp6Wr

 
http://shrt10.com/xjzaTd
 

 

 

 

 

 

 

 

 

CHIKARA 2018 04 21 Hour of Power S19E03 720p WEB NCMP Watch / Download

Leave a Reply

Support HVIPS

Please Disable Ad-Block To View This site. just help us to continue this work