Watch UFC Fight Night 123 Erly Prelims WEB /720p

Watch UFC Fight Night 123 Erly Prelims WEB /720p

 

 

 

 

 

 

wwe

 

 

 

 

 

 

Complete name : UFC.Fight.Night.123.Early.Prelims.WEB-DL.mp4
Format : MPEG-4
Format profile : Base Media
Codec ID : isom
File size : 979 MiB
Duration : 1h 29mn
Overall bit rate : 1 529 Kbps
Writing application : Lavf56.40.101

Video
ID : 1
Format : AVC
Format/Info : Advanced Video Codec
Codec ID : avc1
Codec ID/Info : Advanced Video Coding
Duration : 1h 29mn
Bit rate mode : Variable
Bit rate : 1 442 Kbps
Width : 852 pixels
Height : 480 pixels
Display aspect ratio : 16:9
Frame rate mode : Constant
Frame rate : 29.970 fps
Color space : YUV
Chroma subsampling : 4:2:0
Bit depth : 8 bits
Scan type : Progressive
Bits/(Pixel*Frame) : 0.118
Stream size : 924 MiB (94%)

Audio
ID : 2
Format : AAC
Format/Info : Advanced Audio Codec
Format profile : LC
Codec ID : 40
Duration : 1h 29mn
Bit rate mode : Variable
Bit rate : 77.6 Kbps
Maximum bit rate : 83.4 Kbps
Channel(s) : 2 channels
Channel positions : Front: L R
Sampling rate : 44.1 KHz
Compression mode : Lossy
Stream size : 49.7 MiB (5%)

 

 

 

 

 

 

 
Complete name : UFC.Fight.Night.123.Early.Prelims.720p.WEB-DL.mp4
Format : MPEG-4
Format profile : Base Media
Codec ID : isom
File size : 2.77 GiB
Duration : 1h 29mn
Overall bit rate : 4 423 Kbps
Writing application : Lavf56.40.101

Video
ID : 1
Format : AVC
Format/Info : Advanced Video Codec
Codec ID : avc1
Codec ID/Info : Advanced Video Coding
Duration : 1h 29mn
Bit rate mode : Variable
Bit rate : 4 289 Kbps
Width : 1 280 pixels
Height : 720 pixels
Display aspect ratio : 16:9
Frame rate mode : Constant
Frame rate : 29.970 fps
Color space : YUV
Chroma subsampling : 4:2:0
Bit depth : 8 bits
Scan type : Progressive
Bits/(Pixel*Frame) : 0.155
Stream size : 2.68 GiB (97%)

Audio
ID : 2
Format : AAC
Format/Info : Advanced Audio Codec
Format profile : LC
Codec ID : 40
Duration : 1h 29mn
Bit rate mode : Variable
Bit rate : 126 Kbps
Maximum bit rate : 134 Kbps
Channel(s) : 2 channels
Channel positions : Front: L R
Sampling rate : 44.1 KHz
Compression mode : Lossy
Stream size : 80.4 MiB (3%)

 

 

 

 

 

 

 

 

 

 

 

Watch UFC Fight Night 123 Erly Prelims WEB /720p

 

 

 

 

Watch online

 

 

Waiting finish converting video

 

 

Server 1

 

 

 

 

 

 

 

 

 

 

 

 

 

 

 

 

 

 

 

 

Server 2

 

 

 

 

 

 

 

 


 

 

 

 

 

 

 

Srver 3

 

 

 

 

 

 

 

 

 

 

 

 


 

 

 

 

 

Uploaded By Site DX-TV.com

 

 

 

open rar file to see this password

 

 

 

 

The password is : DX-TV.com

 

 

 

 

400p+720p

 

 

 

Uploaded.net

 

 

 

 

 

 

 

 

http://shrt10.com/wIZRfxg7

 

 

 

 

http://shrt10.com/fYO3pjYF

 

 

 

 

 

 

rapidgator.net

 

 

 

 

 

 

 

http://shrt10.com/tQmPoisC

 

 

 

 

 

http://shrt10.com/BaUB

 

 

 

 

 

 

 

Watch UFC Fight Night 123 Erly Prelims WEB /720p