BJW 2018 04 14 Ikkitosen Strong Climb Final Watch / Download

BJW 2018 04 14 Ikkitosen Strong Climb Final Watch / Download

 

 

 

 

 

 

 

 

dx-tv.com

 

 

 

 

 

Complete name : (2018.04.15) BJW Ikkitosen~Strong Climb Final.mp4
Format : MPEG-4
Format profile : Base Media / Version 2
Codec ID : mp42
File size : 1.72 GiB
Duration : 3h 17mn
Overall bit rate : 1 248 Kbps
Encoded date : UTC 2018-04-15 13:19:13
Tagged date : UTC 2018-04-15 13:19:20

Video
ID : 1
Format : AVC
Format/Info : Advanced Video Codec
Codec ID : avc1
Codec ID/Info : Advanced Video Coding
Duration : 3h 17mn
Bit rate mode : Variable
Bit rate : 1 145 Kbps
Width : 1 024 pixels
Height : 576 pixels
Display aspect ratio : 16:9
Frame rate mode : Variable
Frame rate : 29.970 fps
Minimum frame rate : 18.519 fps
Maximum frame rate : 83.333 fps
Color space : YUV
Chroma subsampling : 4:2:0
Bit depth : 8 bits
Scan type : Progressive
Bits/(Pixel*Frame) : 0.065
Stream size : 1.58 GiB (92%)
Encoded date : UTC 2018-04-15 13:19:13
Tagged date : UTC 2018-04-15 13:19:20

Audio
ID : 2
Format : AAC
Format/Info : Advanced Audio Codec
Format profile : LC
Codec ID : 40
Duration : 3h 17mn
Bit rate mode : Variable
Bit rate : 96.0 Kbps
Channel(s) : 2 channels
Channel positions : Front: L R
Sampling rate : 44.1 KHz
Compression mode : Lossy
Stream size : 136 MiB (8%)
Encoded date : UTC 2018-04-15 13:19:13
Tagged date : UTC 2018-04-15 13:19:20

 

 

 

 

 

 

 

 

 

 

BJW 2018 04 14 Ikkitosen Strong Climb Final Watch / Download

 

 

 

 

Watch online

 

 

Waiting finish converting video

 

 

Server 1

 

 

 

 

 

 

 

 

 

 

 

 

 

 

 

 

 

Server 2

 

 

 

 

 

 

 

 

 

 

 

 

 

 

Uploaded By Site DX-TV.com

 

 

 

open rar file to see this password

 

 

 

 

The password is : DX-TV.com

 

 

 

 

 

Uploaded.net + rapidgator.net

 

 

 

 

 

 

http://shrt10.com/evAw0Ud

 

 

 

 

 

 

http://shrt10.com/iCW2

 

 

 

 

 

 

 

 

 

BJW 2018 04 14 Ikkitosen Strong Climb Final Watch / Download

Support HVIPS

Please Disable Ad-Block To View This site. just help us to continue this work