Beyond Wrestling All Day 2018 05 27 720p WEB DL Watch /Download

Beyond Wrestling All Day 2018 05 27 720p WEB DL Watch /Download

 

 

 

 

 

 

dx-tv

 

 

 

Complete name : Beyond Wrestling – All Day – 2018.05.27 [720p].mp4
Format : MPEG-4
Format profile : Base Media
Codec ID : isom
File size : 3.62 GiB
Duration : 3h 21mn
Overall bit rate : 2 568 Kbps

Video
ID : 2
Format : AVC
Format/Info : Advanced Video Codec
Codec ID : avc1
Codec ID/Info : Advanced Video Coding
Duration : 3h 21mn
Bit rate mode : Variable
Bit rate : 2 437 Kbps
Width : 1 280 pixels
Height : 720 pixels
Display aspect ratio : 16:9
Frame rate mode : Variable
Frame rate : 29.970 fps
Minimum frame rate : 18.868 fps
Maximum frame rate : 30.303 fps
Color space : YUV
Chroma subsampling : 4:2:0
Bit depth : 8 bits
Scan type : Progressive
Bits/(Pixel*Frame) : 0.088
Stream size : 3.44 GiB (95%)

Audio
ID : 1
Format : AAC
Format/Info : Advanced Audio Codec
Format profile : LC
Codec ID : 40
Duration : 3h 21mn
Bit rate mode : Constant
Bit rate : 122 Kbps
Channel(s) : 2 channels
Channel positions : Front: L R
Sampling rate : 48.0 KHz
Compression mode : Lossy
Stream size : 176 MiB (5%)

 

 

 

 

 

 

Beyond Wrestling All Day 2018 05 27 720p WEB DL Watch /Download

 

 

 

 

Watch online

 

 

Waiting finish converting video

 

 

Server 1

 

 

 

 

 

 

 

 

 

 

 

 

 

 

 

Server 2

 

 

 

 

 

 

 


 

 

 

 

 

Uploaded By Site DX-TV.com

 

 

 

open rar file to see this password

 

 

 

 

The password is : DX-TV.com

 

 

 

 

 

Uploaded.net + rapidgator.net

 

 

 

 

 

 

 

http://shrt10.com/VfzKnea

 
http://shrt10.com/wPqKFCq4
 

 

 

 

 

 

Beyond Wrestling All Day 2018 05 27 720p WEB DL Watch /Download

Support HVIPS

Please Disable Ad-Block To View This site. just help us to continue this work