Bellator 199 720p HDTV KYR Download

Bellator 199 720p HDTV KYR Download

 

 

 

 

 

dx-tv

 

 

 

 

 

Complete name : Bellator.199.720p.HDTV.x264-KYR.mkv
Format : Matroska
File size : 3.21 GiB
Duration : 1h 53mn
Overall bit rate : 4 048 Kbps

Video
ID : 1
Format : AVC
Format/Info : Advanced Video Codec
Format settings, GOP : M=4, N=7
Codec ID : V_MPEG4/ISO/AVC
Duration : 1h 53mn
Bit rate : 3 583 Kbps
Width : 1 280 pixels
Height : 720 pixels
Display aspect ratio : 16:9
Frame rate : 59.940 fps
Color space : YUV
Chroma subsampling : 4:2:0
Bit depth : 8 bits
Scan type : Progressive
Bits/(Pixel*Frame) : 0.065
Stream size : 2.85 GiB (89%)

Audio
ID : 2
Format : AC-3
Format/Info : Audio Coding 3
Mode extension : CM (complete main)
Codec ID : A_AC3
Duration : 1h 53mn
Bit rate mode : Constant
Bit rate : 384 Kbps
Channel(s) : 2 channels
Channel positions : Front: L R
Sampling rate : 48.0 KHz
Bit depth : 16 bits
Compression mode : Lossy
Stream size : 312 MiB (9%)

 

 

 

 

Bellator 199 720p HDTV KYR Download

 

 

 

 

 

Uploaded By Site DX-TV.com

 

 

 

open rar file to see this password

 

 

 

 

The password is : DX-TV.com

 

 

 

 

 

 

Uploaded.net + rapidgator.net

 

 

 

 

 

http://shrt10.com/ziHVjNg

 
http://shrt10.com/Yfwg
 

 

 

 

 

 

Bellator 199 720p HDTV KYR Download