Bellator 198 1080p HDTV VERUM /Download

Bellator 198 1080p HDTV VERUM /Download

 

 

 

 

 

 

 

 

dx-tv.com

 

 

 

 

 
Complete name : bellator.198.1080p.hdtv.x264-verum.mkv
Format : Matroska
File size : 5.33 GiB
Duration : 2h 40mn
Overall bit rate : 4 765 Kbps

Video
ID : 1
Format : AVC
Duration : 2h 40mn
Bit rate : 4 478 Kbps
Width : 1 920 pixels
Height : 1 080 pixels
Display aspect ratio : 16:9
Frame rate : 25.000 fps
Color space : YUV
Chroma subsampling : 4:2:0
Bit depth : 8 bits
Scan type : Progressive
Bits/(Pixel*Frame) : 0.086
Stream size : 5.01 GiB (94%)

Audio
ID : 2
Format version : Version 1
Format profile : Layer 2
Codec ID : A_MPEG/L2
Codec ID/Hint : MP2
Duration : 2h 40mn
Bit rate mode : Constant
Bit rate : 192 Kbps
Channel(s) : 2 channels
Sampling rate : 48.0 KHz
Compression mode : Lossy
Stream size : 220 MiB (4%)
Language : English

 

 

 

 

Bellator 198 1080p HDTV VERUM /Download

 

 

 

 

Uploaded By Site DX-TV.com

 

 

 

open rar file to see this password

 

 

 

 

The password is : DX-TV.com

 

 

 

 

 

 

 

Uploaded.net + rapidgator.net

 

 

 

 

 

http://shrt10.com/woqu

 

 

 

http://shrt10.com/MqYTmQN

 

 

http://shrt10.com/7C0K3C2

 

 

http://shrt10.com/vTaDg

 

 

 

 

 

 

Bellator 198 1080p HDTV VERUM /Download

Leave a Reply

Support HVIPS

Please Disable Ad-Block To View This site. just help us to continue this work