Bellator 197 720p HDTV KYR Watch / Download

Bellator 197 720p HDTV KYR Watch / Download

 

 

 

 

 

 

 

 

dx-tv.com

 

 

 

 

 

 

Complete name : Bellator.197.720p.HDTV.x264-KYR.mkv
Format : Matroska
File size : 2.43 GiB
Duration : 1h 26mn
Overall bit rate : 4 028 Kbps
Encoded date : UTC 2018-04-14 09:57:51

Video
ID : 1
Format : AVC
Format/Info : Advanced Video Codec
Codec ID : V_MPEG4/ISO/AVC
Duration : 1h 26mn
Bit rate : 3 564 Kbps
Width : 1 280 pixels
Height : 720 pixels
Display aspect ratio : 16:9
Frame rate : 59.940 fps
Color space : YUV
Chroma subsampling : 4:2:0
Bit depth : 8 bits
Scan type : Progressive
Bits/(Pixel*Frame) : 0.065
Stream size : 2.15 GiB (88%)

Audio
ID : 2
Format : AC-3
Format/Info : Audio Coding 3
Mode extension : CM (complete main)
Codec ID : A_AC3
Duration : 1h 26mn
Bit rate mode : Constant
Bit rate : 384 Kbps
Channel(s) : 6 channels
Channel positions : Front: L C R, Side: L R, LFE
Sampling rate : 48.0 KHz
Bit depth : 16 bits
Compression mode : Lossy
Stream size : 237 MiB (10%)

 

 

 

 

 

 

Bellator 197 720p HDTV KYR Watch / Download

 

 

 

 

Watch online

 

 

Waiting finish converting video

 

 

Server 1

 

 

 

 

 

 

 

 

 

 

 

 

 

 

 

Server 2

 

 

 

 

 

 

 

 

 

 

Uploaded By Site DX-TV.com

 

 

 

open rar file to see this password

 

 

 

 

The password is : DX-TV.com

 

 

 

 

 

 

 

 

 

Uploaded.net + rapidgator.net

 

 

 

 

 

 

http://shrt10.com/vAFTqVm

 

 

 

 

http://shrt10.com/zKq1o

 

 

 

 

 

 

 

 

 

 

Bellator 197 720p HDTV KYR Watch / Download