Watch Bellator 195 Caldwell vs Higo HDTV x264 DX-TV mp4

Watch Bellator 195 Caldwell vs Higo HDTV x264 DX-TV mp4

 

 

 

s

 

 

 

wwe

 

 

 

 

 

 
Complete name : Bellator 195 Caldwell vs Higo HDTV x264 DX-TV.mp4
Format : MPEG-4
Format profile : Base Media / Version 2
Codec ID : mp42
File size : 1.08 GiB
Duration : 1h 32mn
Overall bit rate : 1 668 Kbps
Encoded date : UTC 2018-03-03 06:50:04
Tagged date : UTC 2018-03-03 06:50:04

Video
ID : 1
Format : AVC
Format/Info : Advanced Video Codec
Codec ID : avc1
Codec ID/Info : Advanced Video Coding
Duration : 1h 32mn
Bit rate mode : Variable
Bit rate : 1 500 Kbps
Width : 1 920 pixels
Height : 1 072 pixels
Display aspect ratio : 16:9
Frame rate mode : Constant
Frame rate : 29.970 fps
Color space : YUV
Chroma subsampling : 4:2:0
Bit depth : 8 bits
Scan type : Progressive
Bits/(Pixel*Frame) : 0.024
Stream size : 996 MiB (90%)

Audio
ID : 2
Format : AAC
Format/Info : Advanced Audio Codec
Format profile : LC
Codec ID : 40
Duration : 1h 32mn
Bit rate mode : Variable
Bit rate : 160 Kbps
Channel(s) : 2 channels
Channel positions : Front: L R
Sampling rate : 48.0 KHz
Compression mode : Lossy
Stream size : 106 MiB (10%)
Title : Stereo
Language : English
Encoded date : UTC 2018-03-03 06:50:04
Tagged date : UTC 2018-03-03 06:50:04

 

 

 

 

 

 

 

 

 

 

 

 

Watch Bellator 195 Caldwell vs Higo HDTV x264 DX-TV mp4

 

 

 

 

Watch online

 

 

Waiting finish converting video

 

 

Server 1

 

 

 

 

 

 

 

 

 

 

 

 

 

 

 

 

 

 

 

Server 2

 

 

 

 

 

 

 

 


 

 

 

 

 

 

 

 

 

Uploaded By Site DX-TV.com

 

 

 

open rar file to see this password

 

 

 

 

The password is : DX-TV.com

 

 

 

 

 

Uploaded.net + rapidgator.net

 

 

 

 

 

 

http://shrt10.com/KBRSeqRa

 

 

 

 

http://shrt10.com/edKBVW

 

 

 

 

 

 

 

 

 

 

Watch Bellator 195 Caldwell vs Higo HDTV x264 DX-TV mp4

Support HVIPS

Please Disable Ad-Block To View This site. just help us to continue this work