Watch Lucha Forever 2017 10 05 Ultimo Battle 2017 WEB /720p

Watch Lucha Forever 2017 10 05 Ultimo Battle 2017 WEB /720p

 

 

 

 

 

 

wwe

 

 

 

 

 

 

Complete name : Lucha.Forever.2017.10.05.Ultimo.Battle.2017.WEB.h264-iNDYHEEL.mp4
Format : MPEG-4
Format profile : Base Media
Codec ID : isom
File size : 1.96 GiB
Duration : 2h 57mn
Overall bit rate : 1 585 Kbps
Writing application : Lavf57.20.100

Video
ID : 1
Format : AVC
Format settings, ReFrames : 3 frames
Codec ID : avc1
Codec ID/Info : Advanced Video Coding
Duration : 2h 57mn
Bit rate mode : Variable
Bit rate : 1 494 Kbps
Width : 854 pixels
Height : 480 pixels
Display aspect ratio : 16:9
Frame rate mode : Constant
Frame rate : 29.970 fps
Color space : YUV
Chroma subsampling : 4:2:0
Bit depth : 8 bits
Scan type : Progressive
Bits/(Pixel*Frame) : 0.122
Stream size : 1.85 GiB (94%)

Audio
ID : 2
Codec ID : 40
Duration : 2h 57mn
Bit rate mode : Variable
Bit rate : 84.6 Kbps
Maximum bit rate : 104 Kbps
Channel(s) : 2 channels
Channel positions : Front: L R
Sampling rate : 48.0 KHz
Compression mode : Lossy
Stream size : 107 MiB (5%)

 

 

 

 

 

 
Complete name : Lucha.Forever.2017.10.05.Ultimo.Battle.2017.720p.WEB.h264-iNDYHEEL.mp4
Format : MPEG-4
Format profile : Base Media
Codec ID : isom
File size : 3.31 GiB
Duration : 2h 57mn
Overall bit rate : 2 677 Kbps
Writing application : Lavf57.20.100

Video
ID : 1
Format : AVC
Codec ID : avc1
Codec ID/Info : Advanced Video Coding
Duration : 2h 57mn
Bit rate mode : Variable
Bit rate : 2 586 Kbps
Width : 1 280 pixels
Height : 720 pixels
Display aspect ratio : 16:9
Frame rate mode : Constant
Frame rate : 29.970 fps
Color space : YUV
Chroma subsampling : 4:2:0
Bit depth : 8 bits
Scan type : Progressive
Bits/(Pixel*Frame) : 0.094
Stream size : 3.20 GiB (97%)

Audio
ID : 2
Format : AAC
Format/Info : Advanced Audio Codec
Format profile : LC
Codec ID : 40
Duration : 2h 57mn
Bit rate mode : Variable
Bit rate : 84.6 Kbps
Maximum bit rate : 104 Kbps
Channel(s) : 2 channels
Channel positions : Front: L R
Sampling rate : 48.0 KHz
Compression mode : Lossy
Stream size : 107 MiB (3%)

 

 

 

 

 

 

 

 

 

 

 

 

Watch Lucha Forever 2017 10 05 Ultimo Battle 2017 WEB /720p

 

 

 

 

Watch online

 

 

Waiting finish converting video

 

 

Server 1

 

 

 

 

 

 

 

 

 

 

 

 

 

 

 

 

 

 

 

Server 2

 

 

 

 

 

 

 

 


 

 

 

 

 

 

 

 

 

 

 

400p+720p

 

 

 

 

Uploaded.net

 

 

 

 

 

 

http://shrt10.com/KihlG3i

 

 

 

 

 

http://shrt10.com/wpGym4

 

 

 

 

 

 

rapidgator.net

 

 

 

 

 

 

http://shrt10.com/i8nfHM

 

 

 

 

http://shrt10.com/VetV9

 

 

 

 

 

Watch Lucha Forever 2017 10 05 Ultimo Battle 2017 WEB /720p

Support HVIPS

Please Disable Ad-Block To View This site. just help us to continue this work