AJPW Champion Carnival 2018 Day 7 2018 04 15 720p WEB DL Watch / Download

AJPW Champion Carnival 2018 Day 7 2018 04 15 720p WEB DL Watch / Download

 

 

 

 

 

 

 

 

 

dx-tv.com

 

 

 

 

 

 

Complete name : AJPW.Champion.Carnival.2018.Day.7.2018.04.15.720p.WEB-DL.mp4
Format : MPEG-4
Format profile : Base Media
Codec ID : isom
File size : 1.91 GiB
Duration : 2h 30mn
Overall bit rate : 1 823 Kbps
Writing application : Lavf58.11.101

Video
ID : 1
Format : AVC
Format/Info : Advanced Video Codec
Codec ID : avc1
Codec ID/Info : Advanced Video Coding
Duration : 2h 30mn
Bit rate mode : Variable
Bit rate : 1 718 Kbps
Width : 1 280 pixels
Height : 720 pixels
Display aspect ratio : 16:9
Frame rate mode : Variable
Frame rate : 29.970 fps
Minimum frame rate : 28.571 fps
Maximum frame rate : 32.258 fps
Color space : YUV
Chroma subsampling : 4:2:0
Bit depth : 8 bits
Scan type : Progressive
Bits/(Pixel*Frame) : 0.062
Stream size : 1.80 GiB (94%)

Audio
ID : 2
Format : AAC
Format/Info : Advanced Audio Codec
Format profile : LC
Codec ID : 40
Duration : 2h 30mn
Bit rate mode : Constant
Bit rate : 96.0 Kbps
Channel(s) : 2 channels
Channel positions : Front: L R
Sampling rate : 48.0 KHz
Compression mode : Lossy
Stream size : 103 MiB (5%)

 

 

 

 

 

 

 

 

AJPW Champion Carnival 2018 Day 7 2018 04 15 720p WEB DL Watch / Download

 

 

 

 

Watch online

 

 

Waiting finish converting video

 

 

Server 1

 

 

 

 

 

 

 

 

 

 

 

 

 

 

 

 

 

Server 2

 

 

 

 

 

 


 

 

 

 

 

Uploaded By Site DX-TV.com

 

 

 

open rar file to see this password

 

 

 

 

The password is : DX-TV.com

 

 

 

 

 

 

 

Uploaded.net + rapidgator.net

 

 

 

 

 

http://shrt10.com/ZzQ4

 

 

 

 

 

http://shrt10.com/kTSe6J

 

 

 

 

 

 

AJPW Champion Carnival 2018 Day 7 2018 04 15 720p WEB DL Watch / Download