AJPW Champion Carnival 2018 Day 6 2018 04 14 720p WEB atch / Download

AJPW Champion Carnival 2018 Day 6 2018 04 14 720p WEB atch / Download

 

 

 

 

 

 

 

 

dx-tv.com

 

 

 

 

 

Complete name : AJPW.Champion.Carnival.2018.Day.6.2018.04.14.720p.WEB-DL.mp4
Format : MPEG-4
Format profile : Base Media
Codec ID : isom
File size : 1.71 GiB
Duration : 2h 1mn
Overall bit rate : 2 007 Kbps
Writing application : Lavf58.11.101

Video
ID : 1
Format : AVC
Format/Info : Advanced Video Codec
Codec ID : avc1
Codec ID/Info : Advanced Video Coding
Duration : 2h 1mn
Bit rate mode : Variable
Bit rate : 1 904 Kbps
Width : 1 280 pixels
Height : 720 pixels
Display aspect ratio : 16:9
Frame rate mode : Constant
Frame rate : 30.000 fps
Color space : YUV
Chroma subsampling : 4:2:0
Bit depth : 8 bits
Scan type : Progressive
Bits/(Pixel*Frame) : 0.069
Stream size : 1.62 GiB (95%)
Audio
ID : 2
Format : AAC
Format/Info : Advanced Audio Codec
Format profile : LC
Codec ID : 40
Duration : 2h 1mn
Bit rate mode : Constant
Bit rate : 93.5 Kbps
Channel(s) : 2 channels
Channel positions : Front: L R
Sampling rate : 44.1 KHz
Compression mode : Lossy
Stream size : 81.4 MiB (5%)

 

 

 

 

 

 

 

 

 

 

AJPW Champion Carnival 2018 Day 6 2018 04 14 720p WEB atch / Download

 

 

 

 

Watch online

 

 

Waiting finish converting video

 

 

Server 1

 

 

 

 

 

 

 

 

 

 

 

 

 

 

 

 

 

 

Server 2

 

 

 

 

 

 

 

 

 

 

 

 

 

 

Uploaded By Site DX-TV.com

 

 

 

open rar file to see this password

 

 

 

 

The password is : DX-TV.com

 

 

 

 

 

 

Uploaded.net + rapidgator.net

 

 

 

 

 

http://shrt10.com/YZGZas

 

 

 

 

 

http://shrt10.com/lqu2R4G

 

 

 

 

 

 

 

AJPW Champion Carnival 2018 Day 6 2018 04 14 720p WEB atch / Download

Support HVIPS

Please Disable Ad-Block To View This site. just help us to continue this work