AAW 2018 03 16 EPIC The 14 Year Anniversary Event 720p WEB NCMP Watch/ Download

AAW 2018 03 16 EPIC The 14 Year Anniversary Event 720p WEB NCMP Watch/ Download

 

 

 

 


 

 

dx-tv.com

 

 

 

 

 

 

Complete name : AAW.2018.03.16.EPIC.The.14.Year.Anniversary.Event.720p.WEB.h264-NCMP.mp4
Format : MPEG-4
Format profile : Base Media
Codec ID : isom
File size : 3.20 GiB
Duration : 2h 50mn
Overall bit rate : 2 681 Kbps
Writing application : Lavf55.12.100

Video
ID : 2
Format : AVC
Format/Info : Advanced Video Codec
Codec ID/Info : Advanced Video Coding
Duration : 2h 50mn
Bit rate mode : Variable
Bit rate : 2 590 Kbps
Width : 1 280 pixels
Height : 720 pixels
Display aspect ratio : 16:9
Frame rate mode : Constant
Frame rate : 29.970 fps
Color space : YUV
Chroma subsampling : 4:2:0
Bit depth : 8 bits
Scan type : Progressive
Bits/(Pixel*Frame) : 0.094
Stream size : 3.09 GiB (97%)
Audio
ID : 1
Format : AAC
Format/Info : Advanced Audio Codec
Format profile : LC
Codec ID : 40
Duration : 2h 50mn
Bit rate mode : Variable
Bit rate : 84.1 Kbps
Maximum bit rate : 87.8 Kbps
Channel(s) : 2 channels
Channel positions : Front: L R
Sampling rate : 48.0 KHz
Compression mode : Lossy
Stream size : 103 MiB (3%)

 

 

 

 

 

 

 

 

AAW 2018 03 16 EPIC The 14 Year Anniversary Event 720p WEB NCMP Watch/ Download

 

 

 

 

Watch online

 

 

Waiting finish converting video

 

 

Server 1

 

 

 

 

 

 

 

 

 

 

 

 

 

 

Server 2

 

 

 

 

 

 


 

 

 

 

Uploaded By Site DX-TV.com

 

 

 

open rar file to see this password

 

 

 

 

The password is : DX-TV.com

 

 

 

 

 

 

Uploaded.net + rapidgator.net

 

 

 

 

 

http://shrt10.com/v0KRmrg

 
http://shrt10.com/FzrjDvp
 

 

 

 

 

 

 

 

AAW 2018 03 16 EPIC The 14 Year Anniversary Event 720p WEB NCMP Watch/ Download

Support HVIPS

Please Disable Ad-Block To View This site. just help us to continue this work