PROGRESS Wrestling 2018 05 06 Chapter 68 Super Strong Style 16 Day Two 1080p WEB iNDYHEEL Download

PROGRESS Wrestling 2018 05 06 Chapter 68 Super Strong Style 16 Day Two 1080p WEB iNDYHEEL Download

 

 

 

 

 

 

dx-tv

 

 

 

Complete name : PROGRESS.Wrestling.2018.05.06.Chapter.68.Super.Strong.Style.16.Day.Two.1080p.WEB.h264-iNDYHEEL.mp4
Format : MPEG-4
Format profile : Base Media
Codec ID : isom
File size : 5.62 GiB
Duration : 3h 17mn
Overall bit rate : 4 080 Kbps
Writing application : Lavf58.2.103

Video
ID : 1
Format : AVC
Format/Info : Advanced Video Codec
Codec ID : avc1
Codec ID/Info : Advanced Video Coding
Duration : 3h 17mn
Bit rate mode : Variable
Bit rate : 3 981 Kbps
Width : 1 920 pixels
Height : 1 080 pixels
Display aspect ratio : 16:9
Frame rate mode : Constant
Frame rate : 29.970 fps
Color space : YUV
Chroma subsampling : 4:2:0
Bit depth : 8 bits
Scan type : Progressive
Bits/(Pixel*Frame) : 0.064
Stream size : 5.48 GiB (98%)

Audio
ID : 2
Format : AAC
Format/Info : Advanced Audio Codec
Format profile : LC
Codec ID : 40
Duration : 3h 17mn
Bit rate mode : Variable
Bit rate : 89.8 Kbps
Maximum bit rate : 104 Kbps
Channel(s) : 2 channels
Channel positions : Front: L R
Sampling rate : 44.1 KHz
Compression mode : Lossy
Stream size : 127 MiB (2%)

 

 

 

 

 

 

PROGRESS Wrestling 2018 05 06 Chapter 68 Super Strong Style 16 Day Two 1080p WEB iNDYHEEL Download

 

 

 

 

 

Uploaded By Site DX-TV.com

 

 

 

open rar file to see this password

 

 

 

 

The password is : DX-TV.com

 

 

 

 

 

 

 

Uploaded.net + rapidgator.net

 

 

 

 

 

 
http://shrt10.com/AFucB6AT
 

http://shrt10.com/Jl7bY
 

http://shrt10.com/5KMGlWl
 

http://shrt10.com/Qqml0JXB
 

 

 

 

PROGRESS Wrestling 2018 05 06 Chapter 68 Super Strong Style 16 Day Two 1080p WEB iNDYHEEL Download

Support HVIPS

Please Disable Ad-Block To View This site. just help us to continue this work