Watch WWE RAW 2018 03 05 HDTV Ebi

Watch WWE RAW 2018 03 05 HDTV Ebi

 

 

 

s

 

 

 

wwe

 

 

 

 

 

 

Complete name : WWE.RAW.2018.03.05.HDTV.x264-Ebi.mp4
Format : MPEG-4
Format profile : Base Media / Version 2
Codec ID : mp42
File size : 1.48 GiB
Duration : 2h 24mn
Overall bit rate : 1 465 Kbps
Encoded date : UTC 2018-03-06 04:51:00
Tagged date : UTC 2018-03-06 04:51:00

Video
ID : 1
Format : AVC
Format/Info : Advanced Video Codec
Codec ID : avc1
Codec ID/Info : Advanced Video Coding
Duration : 2h 24mn
Bit rate mode : Variable
Bit rate : 1 300 Kbps
Width : 712 pixels
Height : 400 pixels
Display aspect ratio : 16:9
Frame rate mode : Constant
Frame rate : 29.970 fps
Color space : YUV
Chroma subsampling : 4:2:0
Bit depth : 8 bits
Scan type : Progressive
Bits/(Pixel*Frame) : 0.152
Stream size : 1.31 GiB (89%)

Audio
ID : 2
Format : AAC
Format/Info : Advanced Audio Codec
Format profile : LC
Codec ID : 40
Duration : 2h 24mn
Bit rate mode : Variable
Bit rate : 160 Kbps
Channel(s) : 2 channels
Channel positions : Front: L R
Sampling rate : 48.0 KHz
Compression mode : Lossy
Stream size : 165 MiB (11%)
Title : Stereo
Encoded date : UTC 2018-03-06 04:51:00
Tagged date : UTC 2018-03-06 04:51:00

 

 

 

 

 

 

 

Watch WWE RAW 2018 03 05 HDTV Ebi

 

 

 

 

Watch online

 

 

Waiting finish converting video

 

 

Server 1

 

 

 

 

 

 

 

 

 

 

 

 

 

 

Server 2

 

 

 

 

 

 


 

 

 

 

 

 

Uploaded By Site DX-TV.com

 

 

 

open rar file to see this password

 

 

 

 

The password is : DX-TV.com

 

 

 

 

 

 

 

Uploaded.net + rapidgator.net

 

 

 

 

 

 

http://shrt10.com/SYrMARFu

 

 

 

 

 

 

http://shrt10.com/XVPxsRO

 

 

 

 

 

 

 

 

Watch WWE RAW 2018 03 05 HDTV Ebi