Watch WWE Mixed Match Challenge S01E01 720p WEB HEEL mp4

Watch WWE Mixed Match Challenge S01E01 720p WEB HEEL mp4

 

 

 

 

 

 

wwe

 

 

 

 

 

 

 

 

 
Complete name : WWE.Mixed.Match.Challenge.S01E01.720p.WEB.h264-HEEL.mp4
Format : MPEG-4
Format profile : Base Media
Codec ID : isom
File size : 311 MiB
Duration : 25mn 4s
Overall bit rate : 1 736 Kbps
Encoded date : UTC 2018-01-16 03:29:40
Tagged date : UTC 2018-01-16 03:29:40

Video
ID : 1
Format : AVC
Format/Info : Advanced Video Codec
Codec ID : avc1
Codec ID/Info : Advanced Video Coding
Duration : 25mn 4s
Bit rate mode : Variable
Bit rate : 1 666 Kbps
Maximum bit rate : 3 052 Kbps
Width : 1 280 pixels
Height : 720 pixels
Display aspect ratio : 16:9
Frame rate mode : Variable
Frame rate : 30.000 fps
Minimum frame rate : 29.412 fps
Maximum frame rate : 30.303 fps
Color space : YUV
Chroma subsampling : 4:2:0
Bit depth : 8 bits
Scan type : Progressive
Bits/(Pixel*Frame) : 0.060
Stream size : 299 MiB (96%)
Tagged date : UTC 2018-01-16 03:30:03

Audio
ID : 2
Format : AAC
Format/Info : Advanced Audio Codec
Format profile : LC
Codec ID : 40
Duration : 25mn 3s
Bit rate mode : Variable
Bit rate : 64.1 Kbps
Maximum bit rate : 68.8 Kbps
Channel(s) : 1 channel
Channel positions : Front: C
Sampling rate : 48.0 KHz
Compression mode : Lossy
Stream size : 11.5 MiB (4%)
Encoded date : UTC 2018-01-16 03:30:01
Tagged date : UTC 2018-01-16 03:30:03

 

 

 

 

 

 

 

 

 

 

 

 

 

 

 

 

 

 

 

 

 

Watch WWE Mixed Match Challenge S01E01 720p WEB HEEL mp4

 

 

 

 

Watch online

 

 

Waiting finish converting video

 

 

Server 1

 

 

 

 

 

 

 

 

 

 

 

 

 

 

 

 

 

 

 

 

 

 

 

 

 

 

 

 

 

 

 

Srver 2

 

 

 

 

 

 

 

 

 

 

 

 

 

 

 

 


 

 

 

 

 

 

 

 

 

 

 

 

 

 

 

 

 

Uploaded By Site DX-TV.com

 

 

 

open rar file to see this password

 

 

 

 

The password is : DX-TV.com

 

 

 

 

720p

 

 

 

 

Uploaded.net + rapidgator.net

 

 

 

 

 

 

 

 

 

 

http://shrt10.com/xkviEo

 

 

 

 

 

http://shrt10.com/F6VWJ

 

 

 

 

 

 

 

 

 

 

 

 

 

 

 

 

 

 

Watch WWE Mixed Match Challenge S01E01 720p WEB HEEL mp4