Watch WWE Main Event 2017 11 24 HDTV Ebi /720p

Watch WWE Main Event 2017 11 24 HDTV Ebi /720p

 

 

 

 

 

 

wwe

 

 

 

 

 

 

Complete name : WWE.Main.Event.2017.11.24.HDTV.x264-Ebi.mp4
Format : MPEG-4
Format profile : Base Media / Version 2
Codec ID : mp42
File size : 441 MiB
Duration : 41mn 55s
Overall bit rate : 1 470 Kbps

Video
ID : 1
Format : AVC
Format/Info : Advanced Video Codec
Codec ID : avc1
Codec ID/Info : Advanced Video Coding
Duration : 41mn 54s
Bit rate mode : Variable
Bit rate : 1 300 Kbps
Width : 712 pixels
Height : 400 pixels
Display aspect ratio : 16:9
Frame rate mode : Constant
Frame rate : 29.970 fps
Color space : YUV
Chroma subsampling : 4:2:0
Bit depth : 8 bits
Scan type : Progressive
Bits/(Pixel*Frame) : 0.152
Stream size : 391 MiB (89%)

Audio
ID : 2
Format : AAC
Format profile : LC
Codec ID : 40
Duration : 41mn 55s
Bit rate mode : Variable
Bit rate : 160 Kbps
Channel(s) : 2 channels
Channel positions : Front: L R
Sampling rate : 48.0 KHz
Compression mode : Lossy
Stream size : 48.1 MiB (11%)
Title : Stereo

 

 

 

 

 

 
Complete name : WWE.Main.Event.2017.11.24.720p.HDTV.x264-Ebi.mp4
Format : MPEG-4
Codec ID : mp42
File size : 1.38 GiB
Duration : 41mn 55s
Overall bit rate : 4 703 Kbps

Video
ID : 1
Format : AVC
Format/Info : Advanced Video Codec
Codec ID : avc1
Codec ID/Info : Advanced Video Coding
Duration : 41mn 54s
Bit rate mode : Variable
Bit rate : 4 500 Kbps
Width : 1 280 pixels
Height : 720 pixels
Display aspect ratio : 16:9
Frame rate mode : Constant
Frame rate : 29.970 fps
Color space : YUV
Chroma subsampling : 4:2:0
Bit depth : 8 bits
Scan type : Progressive
Bits/(Pixel*Frame) : 0.163
Stream size : 1.32 GiB (96%)

Audio
ID : 2
Format : AAC
Format profile : LC
Codec ID : 40
Duration : 41mn 55s
Bit rate mode : Variable
Bit rate : 192 Kbps
Channel(s) : 2 channels
Channel positions : Front: L R
Sampling rate : 48.0 KHz
Compression mode : Lossy
Stream size : 57.7 MiB (4%)
Title : Stereo

 

 

 

 

Watch WWE Main Event 2017 11 24 HDTV Ebi /720p

 

 

 

 

Watch online

 

 

Waiting finish converting video

 

 

Server 1

 

 

 

 

 

 

 

 

 

 

 

 

 

 

 

 

 

 

 

 

Server 2

 

 

 

 

 

 

 

 

 


 

 

 

 

 

 

 

Srver 3

 

 

 

 

 

 

 

 

 

 


 

 

 

 

 

 

 

 

Uploaded By Site DX-TV.com

 

 

 

open rar file to see this password

 

 

 

 

The password is : DX-TV.com

 

 

 

 

400p+720p

 

 

 

Uploaded.net

 

 

 

 

 

 

 

 

 

http://shrt10.com/BQby4Q4P

 

 

 

http://shrt10.com/WoxOaChB

 

 

 

 

 

 

rapidgator.net

 

 

 

 

 

 

 

http://shrt10.com/m82H

 

 

 

 

 

 

http://shrt10.com/8UvCDNl

 

 

 

 

 

 

 

Watch WWE Main Event 2017 11 24 HDTV Ebi /720p

Support HVIPS

Please Disable Ad-Block To View This site. just help us to continue this work