Watch UFC Fight Night 121 Prelims WEB DL /720p

Watch UFC Fight Night 121 Prelims WEB DL /720p

 

 

 

 

 

 

wwe

 

 

 

 

 

Complete name : UFC.Fight.Night.121.Prelims.WEB-DL.mp4
Format : MPEG-4
Format profile : Base Media
Codec ID : isom
File size : 1.25 GiB
Duration : 1h 59mn
Overall bit rate : 1 487 Kbps
Writing application : Lavf56.40.101

Video
ID : 1
Format : AVC
Bit rate mode : Variable
Bit rate : 1 400 Kbps
Width : 960 pixels
Height : 540 pixels
Display aspect ratio : 16:9
Frame rate mode : Constant
Frame rate : 29.970 fps
Color space : YUV
Chroma subsampling : 4:2:0
Bit depth : 8 bits
Scan type : Progressive
Bits/(Pixel*Frame) : 0.090
Stream size : 1.17 GiB (94%)

Audio
ID : 2
Format : AAC
Format profile : LC
Codec ID : 40
Duration : 1h 59mn
Bit rate mode : Variable
Bit rate : 77.6 Kbps
Maximum bit rate : 81.3 Kbps
Channel(s) : 2 channels
Channel positions : Front: L R
Sampling rate : 44.1 KHz
Compression mode : Lossy
Stream size : 66.5 MiB (5%)

 

 

 

 

 

 

 

Complete name : UFC.Fight.Night.121.Prelims.720p.WEB-DL.mp4
Format : MPEG-4
Format profile : Base Media
Codec ID : isom
File size : 3.41 GiB
Duration : 1h 59mn
Overall bit rate : 4 067 Kbps
Writing application : Lavf56.40.101

Video
ID : 1
Format : AVC
Duration : 1h 59mn
Bit rate mode : Variable
Bit rate : 3 932 Kbps
Width : 1 280 pixels
Height : 720 pixels
Display aspect ratio : 16:9
Frame rate mode : Constant
Frame rate : 29.970 fps
Color space : YUV
Chroma subsampling : 4:2:0
Bit depth : 8 bits
Scan type : Progressive
Bits/(Pixel*Frame) : 0.142
Stream size : 3.29 GiB (97%)

Audio
ID : 2
Format : AAC
Format profile : LC
Codec ID : 40
Duration : 1h 59mn
Bit rate mode : Variable
Bit rate : 126 Kbps
Maximum bit rate : 129 Kbps
Channel(s) : 2 channels
Channel positions : Front: L R
Sampling rate : 44.1 KHz
Compression mode : Lossy
Stream size : 108 MiB (3%)

 

 

 

 

 

 

 

 

 

 

 

Watch UFC Fight Night 121 Prelims WEB DL /720p

 

 

 

 

Watch online

 

 

Waiting finish converting video

 

 

Server 1

 

 

 

 

 

 

 

 

 

 

 

 

 

 

 

 

 

 

Srver 2

 

 

 

 

 

 

 

 


 

 

 

 

 

 

 

 

Server 3

 

 

 

 

 

 


 

 

 

 

 

 

Uploaded By Site DX-TV.com

 

 

 

open rar file to see this password

 

 

 

 

The password is : DX-TV.com

 

 

 

 

400p+720p

 

 

 

 

Uploaded.net

 

 

 

 

 

http://shrt10.com/GLA3584

 

 

 

 

http://shrt10.com/hrODI

 

 

 

 

 

 

 

rapidgator.net

 

 

 

 

 

http://shrt10.com/V8oKU0

 

 

 

 

http://shrt10.com/lAhayX

 

 

 

 

 

 

Watch UFC Fight Night 121 Prelims WEB DL /720p

Support HVIPS

Please Disable Ad-Block To View This site. just help us to continue this work